» » Natalie Cole - Don't Look Back

Natalie Cole - Don't Look Back FLAC album


Performer: Natalie Cole
Genre: Soul and Funk music
Title: Don't Look Back
Country: US
Released: 1980
Style: Soul
FLAC version ZIP size: 1547 mb
MP3 version ZIP size: 1408 mb
WMA version ZIP size: 1691 mb
Rating: 4.4
Votes: 278
Other Formats: XM ADX DMF AU AUD MIDI MOD

Complete your Natalie Cole collection. Another CD issue of this release appears in its entirety on the compilation Natalie Cole - Thankful, I Love You So, Don't Look Back.

Don't Look Back (Boston album), or the title song (see below), 1978. Don't Look Back (Celeste Buckingham album), or the title song, 2012. Don't Look Back (Harold Vick album), 1974. Don't Look Back (John Lee Hooker album), or the title song (see below), 1997. Don't Look Back (Nat Adderley album), 1976. Don't Look Back (Natalie Cole album), 1980. Don't Look Back – The Very Best of The Korgis, 2003. Don't Look Back, an album by Al Green, 1993. Don't Look Back, an album by Anelia, 2004. Don't Look Back, an album by Lonnie Lee, 1993.

Don't Look Back is the second studio album by American rock band Boston, released in 1978 on Epic Records. The album reached No. 1 in the US and No. 9 in the UK, and the title track is one of the band's biggest hits, reaching No. 4 in 1978 on the Billboard Hot 100. The album sold over four million copies in the first month of its release, and was certified 7x platinum by the RIAA in the US.

Natalie Cole: все альбомы, включая Our Love Is Here to Stay, Natalie Cole En Español, Love Brought Me Back и другие. 2016 Live at Avo Session Basel 2009. Natalie Cole En Español. Love Brought Me Back. Ask A Woman Who Knows. We're The Best Of Friends.

Don't Look Back (Natalie Cole album). E. Everlasting (Natalie Cole album). Holly & Ivy. I. I Love You So. I'm Ready (Natalie Cole album).

Natalie Cole's 1989 Pop-Rock Album Good To Be Back was a perfect way for her to end the 1980's,because she ends it on a possitive note. The songs are Safe,As A Matter Of Fact,The Rest Of The Night,Miss You Like Crazy which sometimes makes me think of my grandmother's 1987 death,I Do her duet. with Freddie Jackson,the title-cut Good To Be Back,Gonna Make You Mine,the remake of Dionne Warwick's Starting Over Again,Don't Mention My Heartache,the personal I Can't Cry,and the Remake of the late Dinah Washington's Someone's Rockin' My Dreamboat.

Natalie Cole - Walkin' My Baby Back Home. Natalie Cole - Ask A Woman Who Knows. Natalie Cole - Better Than Anything. Natalie Cole - Good to Be Back. Natalie Cole - Don't Get Around Much Anymore. Natalie Cole - We're the Best of Friends. Natalie Cole - My Baby Just Cares for Me.

Tracklist

Don't Look Back 4:08
(I've Seen) Paradise 4:31
Hold On 4:50
Stairway To The Stars 3:08
I'm Getting Into You 3:57
Someone That I Used To Love 4:05
Danger Up Ahead 6:30
Beautiful Dreamer 4:10
Cole-Blooded 4:56

Versions

Category Artist Title (Format) Label Category Country Year
ST-12079 Natalie Cole Don't Look Back ‎(LP, Album) Capitol Records ST-12079 US 1980
ST-12079 Natalie Cole Don't Look Back ‎(LP, Album) Capitol Records ST-12079 US 1980
ST-12079 Natalie Cole Don't Look Back ‎(LP, Album) Capitol Records ST-12079 Canada 1980
ST (L)12079 Natalie Cole Don't Look Back ‎(LP, Album) Capitol Records ST (L)12079 South Africa 1980
1A 062-86175 Natalie Cole Don't Look Back ‎(LP, Album) Capitol Records 1A 062-86175 Netherlands 1980
ST-12079 Natalie Cole Don't Look Back ‎(LP, Album) Capitol Records ST-12079 US 1980
ST.12079 Natalie Cole Don't Look Back ‎(LP, Album) Capitol Records ST.12079 Australia & New Zealand 1980
ST-496 Natalie Cole Don't Look Back ‎(LP, Album, Gat) Capitol Records ST-496 Venezuela 1981
1572482 Natalie Cole Don't Look Back ‎(CD, Album, RE) EMI, Regal 1572482 Australia 1988
72438 19083 27 Natalie Cole Don't Look Back ‎(CD, Album, RE) One Way Records 72438 19083 27 US 1996
ECS-81339 Natalie Cole Don't Look Back ‎(LP, Album, Promo) Capitol Records ECS-81339 Japan Unknown

lubov
foobar2000 1.3.17 / Dynamic Range Meter 1.1.1log date: 2018-06-21 13:55:55--------------------------------------------------------------------------------Analyzed: Natalie Cole / Don't Look Back--------------------------------------------------------------------------------DR Peak RMS Duration Track--------------------------------------------------------------------------------DR15 -1.51 dB -19.22 dB 4:10 01-Don't Look BackDR16 -0.56 dB -19.47 dB 5:32 02-(I've Seen) ParadiseDR16 -1.60 dB -20.99 dB 4:53 03-Hold OnDR14 -2.72 dB -19.50 dB 3:10 04-Stairway To The StarsDR15 -0.95 dB -19.35 dB 4:02 05-I'm Getting In To YouDR14 -0.20 dB -19.18 dB 4:07 06-Someone That I Used To LoveDR15 0.00 dB -16.73 dB 6:33 07-Danger Up AheadDR13 -6.21 dB -23.11 dB 4:18 08-Beautiful DreamerDR15 0.00 dB -18.33 dB 5:02 09-Cole-Blooded--------------------------------------------------------------------------------Number of tracks: 9Official DR value: DR15Samplerate: 44100 HzChannels: 2Bits per sample: 16Bitrate: 876 kbpsCodec: ALAC================================================================================