» » Soulbridge & Tommie Cotton - Secret Life

Soulbridge & Tommie Cotton - Secret Life FLAC album


Performer: Soulbridge
Genre: Electronic
Title: Secret Life
Released: 2015
Style: House
FLAC version ZIP size: 1278 mb
MP3 version ZIP size: 1529 mb
WMA version ZIP size: 1800 mb
Rating: 4.9
Votes: 478
Other Formats: DTS AIFF VOC AAC MP1 DMF WMA

Secret Life (Original Mix). TOP Orfey 0 21 168. KEY: Dm BPM: 124.

Слушайте и скачивайте soulbridge на Хотплеере в mp. Soulbridge - Dj Play My Song (feat. Alex Millet, Emory Toler - I Can Fly (Soulbridge Deep Remix) 07:48. Dana Divine - Music Makes The World Go Round (Original Mix) 07:44. Emma Diva - Sunshine (Original Mix) 06:43. Rachael Calladine - Love Trap (Album Remix) 07:40. Michelle Rivera - I Can Love (Original Mix) 07:40. Rachael Calladine - State Of Mind (Soulplate Rerub Mix) 07:18. Josiah Ruff - On Tonite (Roy Ananda Remix) 07:27.

Soulbridge, Tommie Cotton. Download now. English.

Слушайте Soulbridge и скачивайте бесплатно в формате mp3 прямо сейчас, без кодов, смс и регистрации. The Joy In My Life (Soulbridge Mix) - Soulbridge, Alex Millet, Mitch Matlock. On Tonite (Original Mix) - Soulbridge feat. Dance Floor, Pt. 1 (Hot Wind Mix) - Soulbridge, Rachael Calladine.

Secret Life (Original Mix). 124 bpm, 7A, D minor, 2016-05-02, House, 0 13. Soulbridge, Tommie Cotton.

Tommie Cotton" TITLE "Secret Life (Original Mix)" INDEX 01 28:35:00 TRACK 07 AUDIO PERFORMER "07 Majkol Jay feat. Liz" TITLE "Free Download (Original Mix)" INDEX 01 34:46:00 TRACK 08 AUDIO PERFORMER "08 Syncopate Soul" TITLE "Everyday Crime (Vocal Mix)" INDEX 01 40:12:00 TRACK 09 AUDIO PERFORMER "09 Ron Allen & Sara London" TITLE "Love Myself (Deep Roger & Rightside Vocal Remix)" INDEX 01 45:21:00 TRACK 10 AUDIO PERFORMER "10 RedSoul" TITLE.

Tommie Cotton - Secret Life - Original Mix. 24:203. Jersey Maestros - Move On (feat. Anthony M Johnson) feat. David Morales - There Must Be Love. Soulplate, Gerard John - Best in Me (Soulbridge Mix). Soulplate, Gerard John - Best in Me (Soulplate Club Mix). The Djoon Experience - Baptize Me (Afshin Main Mix) [feat.

Tracklist Hide Credits

1 Secret Life 7:33
2 Secret Life (Mirko Pirozzi Mix)
Remix – Mirko Pirozzi
7:17

Companies, etc.

  • Recorded At – Soulbridge Studio, Lecce, Italy
  • Mixed At – Soulbridge Studio, Lecce, Italy
  • Mastered At – Soulbridge Studio, Lecce, Italy

Credits

  • Lead Vocals, Backing Vocals – Tommie Cotton
  • Lyrics By – David Bowie
  • Producer, Arranged By – Soulbridge